Keresés
Tagfelvétel

namidachan

Projektek állása.

Itt tudod megnézni, hogy a projektjeink mely fázisban vannak a kikerülésig.
Projektek állása.

Fansub etikett

fansubgyik

Felhasználók
· Online vendégek: 2

· Online tagok: 0

· Regisztráltak: 6,173
· Legújabb tag: alexx1227
Facebook
Videós kiadás meg ami még jöhet! :D

Azért kiegészíteném némi leírással, hátha valakit érdekel. Mindegyik RAW videó, és HD Tv-s minőségű. Kb. 390Mb fájlonként. Reklám mentes, csak egy kis japán felirat fut egyszer-egyszer alul keresztül néhány másodpercig. A többi itt olvasható.

Zolko


Videók adatai:

Format : MPEG-4
Format profile : Base Media
Codec ID : isom
File size : 389 MiB
Duration : 23mn 41s
Overall bit rate : 2 297 Kbps


Video
ID : 1
Format : AVC
Format/Info : Advanced Video Codec
Format profile : High@L5.1
Format settings, CABAC : Yes
Format settings, ReFrames : 16 frames
Format settings, GOP : M=4, N=33
Codec ID : avc1
Codec ID/Info : Advanced Video Coding
Duration : 23mn 39s
Bit rate mode : Variable
Bit rate : 1 987 Kbps
Maximum bit rate : 9 000 Kbps
Width : 1 280 pixels
Height : 720 pixels
Display aspect ratio : 16:9
Frame rate mode : Constant
Frame rate : 23.976 fps
Standard : NTSC
Color space : YUV
Chroma subsampling : 4:2:0
Bit depth : 8 bits
Scan type : Progressive
Bits/(Pixel*Frame) : 0.090
Stream size : 336 MiB (86%)
Language : Japanese
Color primaries : BT.709-5, BT.1361, IEC 61966-2-4, SMPTE RP177
Transfer characteristics : BT.709-5, BT.1361
Matrix coefficients : BT.709-5, BT.1361, IEC 61966-2-4 709, SMPTE RP177

Audio
ID : 2
Format : AAC
Format/Info : Advanced Audio Codec
Format profile : LC
Codec ID : 40
Duration : 23mn 41s
Bit rate mode : Constant
Bit rate : 308 Kbps
Channel(s) : 2 channels
Channel positions : Front: L R
Sampling rate : 48.0 KHz
Compression mode : Lossy
Stream size : 52.3 MiB (13%)
Language : Japanese

Hozzászólások
#1 | Gery112 - május 04 2011 09:47:15
Köszi!!
Hozzászólás küldése
Hozzászólás küldéséhez be kell jelentkezni.
©

Üdvözöl a Namida Fansub Team!

Miket találsz nálunk.

Nálunk saját készítésű anime feliratokat, manga fordításokat találsz.
Letöltéshez be kell jelentkezned, ha még nem vagy tag regisztrálj!
Kérdéseidet a Fórumban teheted fel, vagy ha csak csevegni szeretnél, azt is megteheted.

Belépés

Elfelejtett jelszó?

Még nem vagy tag? Regisztrálj!

Regisztráció után hozzáférhetsz a csapat által készíttet feliratokhoz és mangákhoz.